找回密码
 立即注册

QQ登录

只需一步,快速开始

查看: 77526|回复: 2580

[1280X720] [上下格式1080P] 绿灯侠 Green Lantern 3D 2011 half (完美同步的DTS5.1 国语配音)

chenm1994 发表于 2012-2-23 18:27:24 | 显示全部楼层 |阅读模式
本帖最后由 chenm1994 于 2012-2-26 16:04 编辑

重要申明:
本资源的国语音轨已更新,是上译国配内录DTS5.1版,
音质是相当的好,亲们放心收藏吧!
如只需最新国语音轨,请到这里下载:
http://bbs.cnliti.com/thread-98642-1-1.html

左右格式的近日放出,尽请期待......







导演: 马丁·坎贝尔
编剧: 格里格·伯兰蒂 / Michael Goldenberg / Michael Green / 马克·古根海姆
主演: 瑞恩·雷诺兹 / 布蕾克·莱弗利 / 彼得·萨斯加德 / 马克·斯特朗 / 特穆拉·莫里森 / 珍娜·克莱格 / 乔恩·坦尼 / 蒂姆·罗宾斯
类型: 动作 / 科幻
官方网站: www.green-lantern-movie.co.uk
制片国家/地区: 美国
语言: 英语
上映日期: 2011-06-17(美国) / 2011-10-20(中国大陆)
片长: 114分钟 / 123分钟(加长版)
又名: 绿光战警(台)
IMDb链接: tt1133985

绿灯侠的剧情简介 · · · · · ·


  在浩瀚无垠,神秘莫测的宇宙中,有一支拥有强大力量的精英团体,几个世纪以来,他们一直是正义与和平的坚强守卫者,被称作绿灯军团。每一个团员都曾立下誓言,誓死维护星系间的和谐与秩序。每一个绿灯团员都佩戴着一只能量戒指,藉此拥有创造心智想象所能涉及的一切物质的非凡能力。但是,当不速之客Parallax威胁要破坏宇宙中各种能量的平衡,绿灯军团的命运,乃至整个地球的命运,便落到了一个新晋应征入伍的,也是军团中第一个以人类身份被征募的人物手里。他的名字叫:哈尔•乔丹(瑞安•雷诺兹饰演)。
  哈尔是个天赋秉义却有些自命不凡的试飞员。人类从未有谁能成功驾驭过能量戒指的无穷神力,这一事实令绿灯军团内历来有轻视人类的风气。但是哈尔身上散发出的人性也是军团内部其他任何团员所不具备的。所以,哈尔必须将自己的意志力和决心迅速培养起来,与此同时,同伴飞行员,同时也是青梅竹马的初恋女友卡洛尔•菲利斯(布蕾克•莱弗利饰演)的支持与鼓励也是帮助他证明自己价值的关键因素之一。只有拥有了这一切,哈尔才能够克服恐惧,熟练运用自己拥有的新能力,用勇气、智慧和力量打败Parallax,战胜邪恶,拯救地球和人类免受灾难。 



E:\3D影院1\【上下格式1080P】绿灯侠Green Lantern 3D 2011 half  (DTS5.1国语配音).mkv
   General
      Unique ID : 174595634550239003617057052898081805871 (0x8359E5651A5F42F6A926D1934676962F)
      Complete name : E:\3D影院1\【上下格式1080P】绿灯侠Green Lantern 3D 2011 half  (DTS5.1国语配音).mkv
      Format : Matroska
      File size : 10.8 GiB
      Duration : 1h 54mn
      Overall bit rate : 13.5 Mbps
      Movie name : Green Lantern (ash61)
      Encoded date : UTC 2012-02-24 07:27:07
      Writing application : mkvmerge v2.9.9 ('Tutu') built on Nov 25 2009 21:13:32
      Writing library : libebml v0.7.9 + libmatroska v0.8.1
   Video #1
      ID : 1
      Format : AVC
      Format/Info : Advanced Video Codec
      Format profile : High@L4.1
      Format settings, CABAC : Yes
      Format settings, ReFrames : 4 frames
      Codec ID : V_MPEG4/ISO/AVC
      Duration : 1h 54mn
      Bit rate : 12.5 Mbps
      Width : 1 920 pixels
      Height : 1 080 pixels
      Display aspect ratio : 16:9
      Frame rate : 23.976 fps
      Color space : YUV
      Chroma subsampling : 4:2:0
      Bit depth : 8 bits
      Scan type : Progressive
      Bits/(Pixel*Frame) : 0.251
      Stream size : 9.96 GiB (92%)
      Title : Rip by ash61
      Writing library : x264 core 113 r1884 7313bb5
      Encoding settings : cabac=1 / ref=4 / deblock=1:-3:-3 / analyse=0x3:0x113 / me=umh / subme=9 / psy=1 / psy_rd=1.00:0.15 / mixed_ref=1 / me_range=16 / chroma_me=1 / trellis=2 / 8x8dct=1 / cqm=0 / deadzone=21,11 / fast_pskip=1 / chroma_qp_offset=-3 / threads=3 / sliced_threads=0 / nr=0 / decimate=1 / interlaced=0 / constrained_intra=0 / bframes=6 / b_pyramid=2 / b_adapt=2 / b_bias=0 / direct=3 / weightb=1 / open_gop=0 / weightp=2 / keyint=250 / keyint_min=23 / scenecut=40 / intra_refresh=0 / rc_lookahead=60 / rc=crf / mbtree=1 / crf=18.0 / qcomp=0.60 / qpmin=10 / qpmax=51 / qpstep=4 / ip_ratio=1.40 / aq=1:1.00
   Audio #2
      ID : 2
      Format : DTS
      Format/Info : Digital Theater Systems
      Codec ID : A_DTS
      Duration : 1h 54mn
      Bit rate mode : Constant
      Bit rate : 755 Kbps
      Channel(s) : 6 channels
      Channel positions : Front: L C R, Side: L R, LFE
      Sampling rate : 48.0 KHz
      Bit depth : 24 bits
      Compression mode : Lossy
      Stream size : 616 MiB (6%)

下载地址:
游客,如果您要查看本帖隐藏内容请回复
一锤定音 发表于 2012-2-25 17:49:08 | 显示全部楼层
下载看看
回复 支持 5 反对 1

使用道具 举报

jakejiao 发表于 2012-2-25 17:47:27 | 显示全部楼层
期待啊,想看一看
回复 支持 4 反对 2

使用道具 举报

九龙池的鱼 发表于 2012-3-6 15:12:32 | 显示全部楼层
绕过去扔过来
回复 支持 2 反对 2

使用道具 举报

papabull 发表于 2012-3-6 10:06:37 | 显示全部楼层
谢谢楼主,辛苦
回复 支持 2 反对 0

使用道具 举报

chentdk 发表于 2012-2-27 09:34:24 | 显示全部楼层
看看。。。到底如何!
回复 支持 0 反对 1

使用道具 举报

jarodzoe 发表于 2012-3-6 09:35:38 | 显示全部楼层
支持发片!
回复 支持 1 反对 0

使用道具 举报

huzhuoyi1976 发表于 2012-3-5 12:19:15 | 显示全部楼层
谢谢你的分享
回复 支持 1 反对 0

使用道具 举报

rwmbio 发表于 2012-2-23 19:06:34 | 显示全部楼层
期待啊,想看一看

点评

2B啊,几个网址转来转去,坑爹  发表于 2013-2-23 21:00
上下格式1080P] 绿灯侠 Green Lantern 3D 2011 half (完美同步的DTS5.1 国语配音)  详情 回复 发表于 2013-1-1 21:51
[上下格式1080P] 绿灯侠 Green Lantern 3D 2011 half (完美同步的DTS5.1 国语配音)  详情 回复 发表于 2013-1-1 18:30
回复 支持 0 反对 1

使用道具 举报

xcb58888 发表于 2012-2-26 19:56:27 | 显示全部楼层
期待啊,想看一看
回复 支持 反对

使用道具 举报

旺旺小馒头 发表于 2012-2-26 23:29:31 | 显示全部楼层
Format/Info : Digital Theater Systems
回复 支持 反对

使用道具 举报

红色景观 发表于 2012-2-27 00:25:20 | 显示全部楼层
中文发音多好啊
回复 支持 反对

使用道具 举报

pllsh 发表于 2012-2-27 09:03:36 | 显示全部楼层
黼国黻家规划及国际化
回复 支持 反对

使用道具 举报

sdh0715 发表于 2012-2-27 09:44:26 | 显示全部楼层
期待啊,想看看
回复 支持 反对

使用道具 举报

xiaojie0244 发表于 2012-2-27 13:14:41 | 显示全部楼层
谢谢楼主,辛苦了
回复 支持 反对

使用道具 举报

彅啴de.筷乐 发表于 2012-3-1 14:21:54 | 显示全部楼层
中文发音多好啊
回复 支持 反对

使用道具 举报

steventree 发表于 2012-3-1 20:39:32 | 显示全部楼层
看帖当然回帖啊
回复 支持 反对

使用道具 举报

MH-53J 发表于 2012-3-2 18:17:57 | 显示全部楼层
下载看看,好动心~!
回复 支持 反对

使用道具 举报

lvlv123pp789 发表于 2012-3-2 19:46:21 | 显示全部楼层
vvvvvvvvvvvvvvvvvvvvvvvvvvvvvvvvvvvvvvvvvvvvvvvvvvvvv
回复 支持 反对

使用道具 举报

722618478 发表于 2012-3-3 20:32:53 | 显示全部楼层
内公映114分钟 1080P左右格式影片下载地
回复 支持 反对

使用道具 举报

多连喜 发表于 2012-3-3 20:48:47 | 显示全部楼层
?????????????????
回复 支持 反对

使用道具 举报

popydx@163.com 发表于 2012-3-5 07:04:13 | 显示全部楼层
太好了我要
回复 支持 反对

使用道具 举报

183051299 发表于 2012-3-5 10:25:26 | 显示全部楼层
sbdfbd二和任何尔何如
回复 支持 反对

使用道具 举报

cjnxxxxx 发表于 2012-3-5 11:49:15 | 显示全部楼层
看看这个是多大的?

点评

怎么下载呀楼主、、、、、、、、、、、  详情 回复 发表于 2013-1-10 11:44
太好了,我也要噢!!  详情 回复 发表于 2012-7-6 08:38
回复 支持 反对

使用道具 举报

您需要登录后才可以回帖 登录 | 立即注册

本版积分规则

关闭

站长推荐上一条 /1 下一条