找回密码
 立即注册

QQ登录

只需一步,快速开始

楼主: 匿名

【超凡蜘蛛侠 3D The Amazing Spider-Man 2012 3D 3DTV HSBS 2Audio 1080P 3DV】【左右半宽】【1080P

飞雁5637 发表于 2015-8-26 16:20:25 | 显示全部楼层
谢谢分享,谢谢分享
回复 支持 反对

使用道具 举报

saxon17 发表于 2015-8-27 15:41:39 | 显示全部楼层
好人一生平安好人一生平安好人一生平安好人一生平安好人一生平安好人一生平安好人一生平安好人一生平安
回复 支持 反对

使用道具 举报

hm00288 发表于 2015-8-27 15:44:25 | 显示全部楼层
谢谢楼主分享
回复 支持 反对

使用道具 举报

andyzly 发表于 2015-8-27 21:44:00 | 显示全部楼层
Video
ID                               : 1
Format                           : AVC
Format/Info                      : Advanced Video Codec
Format profile                   : High@L4.1
Format settings, CABAC           : Yes
Format settings, ReFrames        : 4 frames
Muxing mode                      : Header stripping
Codec ID                         : V_MPEG4/ISO/AVC
Duration                         : 1h 32mn
Bit rate                         : 10 000 Kbps
Width                            : 1 920 pixels
Height                           : 1 080 pixels
Display aspect ratio             : 16:9
Frame rate                       : 23.976 fps
Color space                      : YUV
Chroma subsampling               : 4:2:0
Bit depth                        : 8 bits
Scan type                        : Progressive
Bits/(Pixel*Frame)               : 0.201
Stream size                      : 6.28 GiB (92%)
Language                         : English

Audio
ID                               : 2
Format                           : AC-3
Format/Info                      : Audio Coding 3
Mode extension                   : CM (complete main)
Muxing mode                      : Header stripping
Codec ID                         : A_AC3
Duration                         : 1h 32mn
Bit rate mode                    : Constant
Bit rate                         : 640 Kbps
Channel(s)                       : 6 channels
Channel positions                : Front: L C R, Side: L R, LFE
Sampling rate                    : 48.0 KHz
Bit depth                        : 16 bits
Compression mode                 : Lossy
Stream size                      : 423 MiB (6%)
Title                            : cnliti
Language                         : Chinese
回复 支持 反对

使用道具 举报

LVMD 发表于 2015-8-28 09:01:29 | 显示全部楼层
谢谢楼主分享 找了好久了
回复 支持 反对

使用道具 举报

未知数0828 发表于 2015-8-28 17:00:50 | 显示全部楼层
感谢     、、、、、
回复 支持 反对

使用道具 举报

boneyluu 发表于 2015-8-28 18:49:17 | 显示全部楼层
谢谢楼主分享
回复 支持 反对

使用道具 举报

cryinsun 发表于 2015-8-28 18:51:38 | 显示全部楼层
这个不错,谢谢分享
回复 支持 反对

使用道具 举报

sssjjjn 发表于 2015-8-28 20:15:34 | 显示全部楼层
下载看看哦
回复 支持 反对

使用道具 举报

13062046566 发表于 2015-8-29 11:05:00 | 显示全部楼层
感谢论坛,感谢楼主,谢谢无私分享。
回复 支持 反对

使用道具 举报

王威1120 发表于 2015-8-29 12:05:28 | 显示全部楼层
初来乍到,请多关照!!!
回复 支持 反对

使用道具 举报

zq2793 发表于 2015-8-29 14:54:33 | 显示全部楼层
点点滴滴地对地导弹点点滴滴
回复 支持 反对

使用道具 举报

潇洒哥1 发表于 2015-8-29 23:40:37 | 显示全部楼层
谢谢分享谢谢分享谢谢分享谢谢分享
回复 支持 反对

使用道具 举报

笨蛋亏子 发表于 2015-8-30 19:45:36 | 显示全部楼层
AAAAAAAAAAAAAAAAAAAAAAAAAAAAAAAAAAAAAAAAASD
回复 支持 反对

使用道具 举报

您需要登录后才可以回帖 登录 | 立即注册

本版积分规则

关闭

站长推荐上一条 /1 下一条