找回密码
 立即注册

QQ登录

只需一步,快速开始

查看: 666|回复: 25

[1080P]PSY&Hyuna - Oppa Is Just My Style[蓝光MV][874M/M2TS/360]

aishang高清 发表于 2016-9-2 00:23:42 | 显示全部楼层 |阅读模式
PSY&Hyuna - Oppa Is Just My Style[蓝光MV].m2ts.jpg
General
ID                             : 0 (0x0)
Complete name                  : F:\PSY&Hyuna - Oppa Is Just My Style[蓝光MV].m2ts
Format                         : BDAV
Format/Info                    : Blu-ray Video
File size                      : 875 MiB
Duration                       : 3mn 46s
Overall bit rate mode          : Variable
Overall bit rate               : 32.3 Mbps
Maximum Overall bit rate       : 48.0 Mbps

Video
ID                             : 4113 (0x1011)
Menu ID                        : 1 (0x1)
Format                         : MPEG Video
Format version                 : Version 2
Format profile                 : Main@High
Format settings, BVOP          : Yes
Format settings, Matrix        : Default
Format settings, GOP           : M=3, N=12
Codec ID                       : 2
Duration                       : 3mn 46s
Bit rate mode                  : Variable
Bit rate                       : 29.5 Mbps
Maximum bit rate               : 32.0 Mbps
Width                          : 1 920 pixels
Height                         : 1 080 pixels
Display aspect ratio           : 16:9
Frame rate                     : 23.976 fps
Color space                    : YUV
Chroma subsampling             : 4:2:0
Bit depth                      : 8 bits
Scan type                      : Progressive
Compression mode               : Lossy
Bits/(Pixel*Frame)             : 0.594
Time code of first frame       : 00:00:00:00
Time code source               : Group of pictures header
GOP, Open/Closed               : Closed
Stream size                    : 798 MiB (91%)

Audio
ID                             : 4352 (0x1100)
Menu ID                        : 1 (0x1)
Format                         : PCM
Format settings, Endianness    : Big
Format settings, Sign          : Signed
Muxing mode                    : Blu-ray
Codec ID                       : 128
Duration                       : 3mn 46s
Bit rate mode                  : Constant
Bit rate                       : 1 536 Kbps
Channel(s)                     : 2 channels
Channel positions              : Front: L R
Sampling rate                  : 48.0 KHz
Bit depth                      : 16 bits
Stream size                    : 41.5 MiB (5%)
游客,如果您要查看本帖隐藏内容请回复


点评

各类少女视频 少女套图 查看网址: uai15.com 或 百度搜索“少女地带”  发表于 2018-5-22 08:40
徐徐微风 发表于 2016-9-2 02:18:55 | 显示全部楼层
谢谢分享再谢谢一次。
回复 支持 反对

使用道具 举报

不懂装懂 发表于 2016-10-1 10:53:56 | 显示全部楼层
感谢你辛勤无私的工作,再接再厉,谢谢。
回复 支持 反对

使用道具 举报

2492961900 发表于 2016-10-4 01:46:17 | 显示全部楼层
出屏效果怎么样,下来看看
回复 支持 反对

使用道具 举报

1230058545 发表于 2016-10-10 14:40:06 | 显示全部楼层

看看下的人多不多.
回复 支持 反对

使用道具 举报

青岛小年轻 发表于 2016-10-20 14:23:56 | 显示全部楼层
感谢楼主分享3d视频辛苦啦
回复 支持 反对

使用道具 举报

茶几-天然呆 发表于 2016-10-29 09:06:02 | 显示全部楼层
感谢分享,有分享更精彩
回复 支持 反对

使用道具 举报

kaiyi110 发表于 2016-11-17 17:15:59 | 显示全部楼层
回复一个好复杂,不带这么不人性化的!
回复 支持 反对

使用道具 举报

zrwgg 发表于 2016-11-22 06:04:38 | 显示全部楼层
谢谢分享,虽然不是3D
回复 支持 反对

使用道具 举报

smcl 发表于 2016-12-7 11:40:39 | 显示全部楼层
鸟叔的片子吗?下来试试。
回复 支持 反对

使用道具 举报

zj1980 发表于 2016-12-10 21:19:16 | 显示全部楼层
回复 支持 反对

使用道具 举报

zj1980 发表于 2016-12-10 21:19:21 | 显示全部楼层
回复 支持 反对

使用道具 举报

zj1980 发表于 2016-12-10 21:19:26 | 显示全部楼层
回复 支持 反对

使用道具 举报

zj1980 发表于 2016-12-10 21:19:28 | 显示全部楼层
回复 支持 反对

使用道具 举报

zj1980 发表于 2016-12-10 21:19:28 | 显示全部楼层
回复 支持 反对

使用道具 举报

zj1980 发表于 2016-12-10 21:19:28 | 显示全部楼层
回复 支持 反对

使用道具 举报

diandian86 发表于 2017-2-9 10:47:10 来自不明物体 | 显示全部楼层
看看效果怎么样
回复 支持 反对

使用道具 举报

sakaluo 发表于 2017-2-18 21:16:23 | 显示全部楼层
传说中的VR嘛
回复 支持 反对

使用道具 举报

您需要登录后才可以回帖 登录 | 立即注册

本版积分规则

关闭

站长推荐上一条 /1 下一条