找回密码
 立即注册

QQ登录

只需一步,快速开始

查看: 5147|回复: 183

[1080P]仓科加奈-丛林写真[1.43G/360云盘]

aishang高清 发表于 2016-7-31 14:40:58 | 显示全部楼层 |阅读模式
仓科加奈-丛林写真.m2ts.jpg
仓科加奈-丛林写真.m2ts_20160731_143637.787.jpg
仓科加奈-丛林写真.m2ts_20160731_143645.211.jpg
仓科加奈-丛林写真.m2ts_20160731_143655.039.jpg
仓科加奈-丛林写真.m2ts_20160731_143659.142.jpg
仓科加奈-丛林写真.m2ts_20160731_143709.970.jpg
General
ID                             : 1 (0x1)
Complete name                  : D:\仓科加奈-丛林写真\仓科加奈-丛林写真.m2ts
Format                         : BDAV
Format/Info                    : Blu-ray Video
File size                      : 1.43 GiB
Duration                       : 6mn 7s
Overall bit rate mode          : Variable
Overall bit rate               : 33.4 Mbps
Maximum Overall bit rate       : 35.5 Mbps

Video
ID                             : 4113 (0x1011)
Menu ID                        : 1 (0x1)
Format                         : AVC
Format/Info                    : Advanced Video Codec
Format profile                 : High@L4.1
Format settings, CABAC         : Yes
Format settings, ReFrames      : 4 frames
Codec ID                       : 27
Duration                       : 6mn 7s
Bit rate mode                  : Variable
Bit rate                       : 31.4 Mbps
Maximum bit rate               : 33.0 Mbps
Width                          : 1 920 pixels
Height                         : 1 080 pixels
Display aspect ratio           : 16:9
Frame rate                     : 29.970 fps
Standard                       : NTSC
Color space                    : YUV
Chroma subsampling             : 4:2:0
Bit depth                      : 8 bits
Scan type                      : MBAFF
Scan order                     : Top Field First
Bits/(Pixel*Frame)             : 0.505
Stream size                    : 1.35 GiB (94%)
Color range                    : Limited
Color primaries                : BT.709
Transfer characteristics       : BT.709
Matrix coefficients            : BT.709

Audio
ID                             : 4352 (0x1100)
Menu ID                        : 1 (0x1)
Format                         : AC-3
Format/Info                    : Audio Coding 3
Mode extension                 : CM (complete main)
Format settings, Endianness    : Big
Codec ID                       : 129
Duration                       : 6mn 7s
Bit rate mode                  : Constant
Bit rate                       : 640 Kbps
Channel(s)                     : 2 channels
Channel positions              : Front: L R
Sampling rate                  : 48.0 KHz
Compression mode               : Lossy
Delay relative to video        : -56ms
Stream size                    : 28.1 MiB (2%)
Language                       : Japanese
游客,如果您要查看本帖隐藏内容请回复



想赚钱扫头像 发表于 2016-8-1 02:31:22 | 显示全部楼层
这是电影吗
回复 支持 反对

使用道具 举报

davidliu82 发表于 2016-8-1 12:55:47 | 显示全部楼层
是3D的吗?还是什么东东
回复 支持 反对

使用道具 举报

caolf 发表于 2016-8-5 14:27:39 | 显示全部楼层
3d的?  福利
回复 支持 反对

使用道具 举报

LEI1314 发表于 2016-8-5 16:39:32 | 显示全部楼层
不要太香烟了
回复 支持 反对

使用道具 举报

qd2372468 发表于 2016-8-5 22:45:11 | 显示全部楼层

不要太香烟了
回复 支持 反对

使用道具 举报

sshyzyq 发表于 2016-8-10 17:35:30 | 显示全部楼层
第三方 看看,谢谢
回复 支持 反对

使用道具 举报

caibao00000 发表于 2016-8-28 11:44:25 | 显示全部楼层
是不是3D的啊
回复 支持 反对

使用道具 举报

sgwcricket 发表于 2016-8-30 21:35:56 | 显示全部楼层
3D的,恩,不错不错
回复 支持 反对

使用道具 举报

h.m.t 发表于 2016-8-31 10:25:53 | 显示全部楼层
感谢楼主分享
回复 支持 反对

使用道具 举报

jack920228 发表于 2016-9-6 17:55:38 | 显示全部楼层
yut7ut6u6yu5y45y
回复 支持 反对

使用道具 举报

qgx8978 发表于 2016-9-6 18:01:24 | 显示全部楼层
看看先,支持了
回复 支持 反对

使用道具 举报

toutiao 发表于 2016-9-6 18:23:55 | 显示全部楼层
真的都很勁爆,其實也不錯
回复 支持 反对

使用道具 举报

toutiao 发表于 2016-9-6 18:23:57 | 显示全部楼层
真的都很勁爆,其實也不錯
回复 支持 反对

使用道具 举报

yf19880701 发表于 2016-9-8 20:04:04 | 显示全部楼层
youmeiyou112
回复 支持 反对

使用道具 举报

韩师傅 发表于 2016-9-8 21:29:53 | 显示全部楼层
我想下载,请高手指教
回复 支持 反对

使用道具 举报

您需要登录后才可以回帖 登录 | 立即注册

本版积分规则

关闭

站长推荐上一条 /1 下一条