找回密码
 立即注册

QQ登录

只需一步,快速开始

查看: 23775|回复: 1473

VR全景视频 高清4K 870MB 《空中巴士A320》机长视角体验客机起飞降落

htsq 发表于 2015-12-4 00:27:29 | 显示全部楼层 |阅读模式
本帖最后由 zwyuan 于 2015-12-4 04:48 编辑

视频属性:

Format                         : AVC
Format/Info                    : Advanced Video Codec
Format profile                 : High@L5.1
Format settings, CABAC         : Yes
Format settings, ReFrames      : 2 frames
Codec ID                       : avc1
Codec ID/Info                  : Advanced Video Coding
Duration                       : 11mn 24s
Bit rate                       : 10.5 Mbps
Width                          : 3 840 pixels
Height                         : 1 920 pixels
Display aspect ratio           : 2.000
Frame rate mode                : Constant
Frame rate                     : 25.000 fps
Color space                    : YUV
Chroma subsampling             : 4:2:0
Bit depth                      : 8 bits
Scan type                      : Progressive
Bits/(Pixel*Frame)             : 0.057
Stream size                    : 860 MiB (99%)

Audio
ID                             : 2
Format                         : AAC
Format/Info                    : Advanced Audio Codec
Format profile                 : LC
Codec ID                       : 40
Duration                       : 11mn 24s
Bit rate mode                  : Constant
Bit rate                       : 126 Kbps
Channel(s)                     : 2 channels
Channel positions              : Front: L R
Sampling rate                  : 44.1 KHz
Compression mode               : Lossy
Stream size                    : 10.2 MiB (1%)


简介:


快来当一回帅气的驾驶员吧!属于你的瑞士空中巴士A320.坐在驾驶舱的感觉可不同于商务舱跟经济舱,光是驾驶员都帅你一脸啊。不一样的角度,拥抱蓝天白云。
4K-空中巴士A320-VRCUN_870MB.mp4_20151204_002300.641.jpg







游客,如果您要查看本帖隐藏内容请回复

点评

海!外直播 t.cn/RxlBL8D 禁闻视频 t.cn/RJJZmvl 如果你天天上街被骗、看病被骗、接个电话被骗、收条短信被骗、拿起报纸被骗、打开电视被骗,而打开这网址一看全是真相,也许会有水土不服的感觉,呵呵!  发表于 2017-4-8 00:57
冷漠网虫 发表于 2015-12-7 23:27:17 | 显示全部楼层
稀罕的东东

点评

成·仁vr,资源,加,wei xin公众号:vr4405 wei xin或Q: 381520942 免·费看!让你体验身临其境的感觉。  发表于 2017-7-4 12:22
看VR成.人视.频的,关注微.信公众.号:HP4410 岛.国、韩国、欧美 免.费VR视.频让你看,让你体验身临其境的感觉。   发表于 2017-6-22 15:54
看VR成.人视.频的,关注微.信公众.号:DIY013 分享群:553158504 岛.国、韩国、欧美 免.费VR视.频让你看,让你体验身临其境的感觉。   发表于 2017-5-14 13:19
回复 支持 51 反对 18

使用道具 举报

dese2 发表于 2015-12-5 18:48:03 | 显示全部楼层
kankan00000
回复 支持 50 反对 18

使用道具 举报

bnn6216356 发表于 2015-12-8 15:44:00 | 显示全部楼层
82618261826182618261
回复 支持 49 反对 15

使用道具 举报

swgod 发表于 2015-12-4 21:36:03 | 显示全部楼层
感谢,下来看看
回复 支持 27 反对 4

使用道具 举报

sham280 发表于 2015-12-20 09:09:06 | 显示全部楼层
感謝樓主分享
回复 支持 2 反对 0

使用道具 举报

雄鸡。 发表于 2015-12-19 14:22:41 | 显示全部楼层
看看看看看看你卡
回复 支持 2 反对 0

使用道具 举报

枫中飞羽 发表于 2015-12-19 12:46:57 | 显示全部楼层
此贴必顶 非常感谢!!!
回复 支持 2 反对 0

使用道具 举报

cyw032 发表于 2015-12-18 20:58:08 | 显示全部楼层
vr是什么,我下来看看
回复 支持 2 反对 0

使用道具 举报

ssooos 发表于 2015-12-4 11:22:56 | 显示全部楼层
不错不错不错
回复 支持 2 反对 0

使用道具 举报

a60224121 发表于 2017-5-13 15:09:39 | 显示全部楼层
提示: 作者被禁止或删除 内容自动屏蔽
回复 支持 1 反对 0

使用道具 举报

wanghuaijun 发表于 2015-12-10 20:08:51 | 显示全部楼层
谢谢了看看怎么样
回复 支持 反对

使用道具 举报

cnlg 发表于 2015-12-11 13:07:26 | 显示全部楼层
再试试,怎么都是下载不了的链接或是下载几K后中止
回复 支持 反对

使用道具 举报

lichuangeng 发表于 2015-12-13 20:24:23 | 显示全部楼层
不错,顶一个
回复 支持 反对

使用道具 举报

w250992702 发表于 2015-12-14 08:24:07 | 显示全部楼层
第一次来,体验一下什么感觉,哈哈哈哈哈哈!
回复 支持 反对

使用道具 举报

myth0801 发表于 2015-12-14 10:30:31 | 显示全部楼层
看分辨率就知道很清晰了
回复 支持 反对

使用道具 举报

westkarl 发表于 2015-12-15 21:05:57 来自不明物体 | 显示全部楼层
试试看,一般视频不会在vr上被识别
回复 支持 反对

使用道具 举报

772427256 发表于 2015-12-16 10:07:59 | 显示全部楼层
是方式方法
回复 支持 反对

使用道具 举报

echen_zhong 发表于 2015-12-16 10:37:37 | 显示全部楼层
4K资源都要顶起来,加油,
回复 支持 反对

使用道具 举报

xfangbin 发表于 2015-12-16 15:44:47 | 显示全部楼层
空中巴士A320
回复 支持 反对

使用道具 举报

andy81718 发表于 2015-12-16 23:04:24 | 显示全部楼层
下载一个试试!!!!!!
回复 支持 反对

使用道具 举报

wowangzk 发表于 2015-12-17 13:33:32 | 显示全部楼层
VR全景视频 高清4K 870MB 《空中巴士A320》机长视角体验客机起飞降落 [修改]


回复 支持 反对

使用道具 举报

gsir 发表于 2015-12-18 17:00:24 | 显示全部楼层
试一下看看
回复 支持 反对

使用道具 举报

您需要登录后才可以回帖 登录 | 立即注册

本版积分规则

关闭

站长推荐上一条 /1 下一条