找回密码
 立即注册

QQ登录

只需一步,快速开始

查看: 57119|回复: 2903

【分歧者2:绝地反击 3D】【杜比TrueHD7.1音轨】【左右半宽】【1080P】【中文字幕】【BT下载】【17.70GB】

、3冇ベ靑哖づ 发表于 2015-7-27 00:09:56 | 显示全部楼层 |阅读模式
本帖最后由 、3冇ベ靑哖づ 于 2015-8-2 20:07 编辑

0.jpg
◎译  名 分歧者2:绝地反击/叛乱者:强权终结(港)/分歧者2:叛乱者(台)/分歧者2:反叛者/反叛者
◎片  名 Insurgent
◎年  代 2015
◎国  家 美国
◎类  别 动作/爱情/科幻/冒险
◎语  言 英语
◎上映日期 2015-03-20(美国)/2015-06-19(中国大陆)
◎IMDb评分  6.9/10 from 47,751 users
◎豆瓣评分 6.0/10 from 10,458 users
◎片  长 119分钟
◎导  演 罗伯特·斯文克  Robert Schwentke
◎主  演 谢琳·伍德蕾 Shailene Woodley
      提奥·詹姆斯 Theo James
      凯特·温丝莱特 Kate Winslet
      奥克塔维亚·斯宾瑟 Octavia Spencer
      杰·科特尼 Jai Courtney
      佐伊·克罗维兹 Zo Kravitz
      迈尔斯·特勒 Miles Teller
      安塞尔·艾尔高特 Ansel Elgort
      李美琪 Maggie Q
      娜奥米·沃茨 Naomi Watts
      梅奇·费法 Mekhi Phifer
      贾斯蒂斯·利克 Justice Leak
      本·劳埃德-休斯 Ben Lloyd-Hughes
      托尼·戈德温 Tony Goldwyn
      艾什莉·贾德 Ashley Judd
      雷·史蒂文森 Ray Stevenson
      约翰尼·韦斯顿 Jonny Weston
      苏琪·沃特豪斯 Suki Waterhouse
      恩杰伊·安东尼 Emjay Anthony
      罗莎·萨拉查 Rosa Salazar
      肯德里克·克罗斯 Kendrick Cross
      丹尼尔·金 Daniel Dae Kim
◎简  介
  翠丝(谢琳·伍德蕾 Shailene Woodley 饰)和老四(提奥·詹姆斯 Theo James 饰)的分歧者身份在暴露后,无一例外地遭到了控制着军队和政权的博学派**珍宁·马修斯(凯特·温丝莱特 Kate Winslet 饰)的追杀。翠丝的父母为了保护她,被珍宁控制的无畏派杀害了。
  翠丝和老四在逃往其它派系寻求庇护的同时,也努力在友好派、诚实派、无私派和无畏派里寻找同盟,以期粉碎珍宁的阴谋,推翻她的统治。与此同时,曾经处于派系体系最底层的无派系阵营大军崛起,成为了反抗珍宁统治不可或缺的力量,而这个阵营的首领竟然是老四本以为已经去世多年的母亲(伊芙琳娜奥米·沃茨 Naomi Watts 饰)。
  但这群试图推翻珍宁统治的“反叛者”并没有立刻联合起来,老四怀疑他母亲的真实目的,翠丝和老四之间也有了越来越多的秘密。与此同时,翠丝发现身为无私派的父母竟然肩负着一个神秘使命,这个秘密正是珍宁急切想得到的,也是她追杀分歧者的原因。为了避免更多人受到伤害,也为了保护她身边的朋友和爱人,翠丝孤身前往博学派总部,试图利用分歧者的身份揭开这个巨大的秘密。在与珍宁的对抗中,翠丝不得不面对自己内心最深的恐惧,以及一个接一个几乎不可能完成的挑战。而当这个秘密终于被翠丝揭开时,所有人才发现,原来这只是故事的开始……


11.gif
11.png
12.gif
12.png
13.gif
13.png
14.gif
14.png

Video
ID                                       : 1
Format                                   : AVC
Format/Info                              : Advanced Video Codec
Format profile                           : High@L4.1
Format settings, CABAC                   : Yes
Format settings, ReFrames                : 2 frames
Codec ID                                 : V_MPEG4/ISO/AVC
Duration                                 : 1h 58mn
Nominal bit rate                         : 16.0 Mbps
Width                                    : 1 920 pixels
Height                                   : 1 080 pixels
Display aspect ratio                     : 16:9
Frame rate mode                          : Constant
Frame rate                               : 23.976 fps
Color space                              : YUV
Chroma subsampling                       : 4:2:0
Bit depth                                : 8 bits
Scan type                                : Progressive
Bits/(Pixel*Frame)                       : 0.322
Title                                    : Insurgent.2015.1080p.3D.BluRay.Half-OU.x264.TrueHD.7.1.Atmos-RARBG
Writing library                          : x264 core 142
Encoding settings                        : cabac=1 / ref=1 / deblock=1:-1:-1 / analyse=0x3:0 / me=hex / subme=5 / psy=0 / mixed_ref=0 / me_range=16 / chroma_me=1 / trellis=0 / 8x8dct=1 / cqm=0 / deadzone=21,11 / fast_pskip=1 / chroma_qp_offset=0 / threads=8 / lookahead_threads=2 / sliced_threads=0 / nr=0 / decimate=1 / interlaced=0 / bluray_compat=0 / constrained_intra=0 / bframes=2 / b_pyramid=0 / b_adapt=1 / b_bias=0 / direct=1 / weightb=1 / open_gop=0 / weightp=0 / keyint=24 / keyint_min=13 / scenecut=40 / intra_refresh=0 / rc=abr / mbtree=0 / bitrate=16000 / ratetol=1.0 / qcomp=0.60 / qpmin=0 / qpmax=69 / qpstep=4 / ip_ratio=1.40 / pb_ratio=1.30 / aq=1:1.00
Default                                  : Yes
Forced                                   : No
Color range                              : Limited
Color primaries                          : BT.709
Transfer characteristics                 : BT.709
Matrix coefficients                      : BT.709

Audio #1
ID                                       : 2
Format                                   : TrueHD
Codec ID                                 : A_TRUEHD
Duration                                 : 1h 58mn
Bit rate mode                            : Variable
Maximum bit rate                         : 7 116 Kbps
Channel(s)                               : 8 channels
Channel positions                        : Front: L C R, Side: L R, Back: L R, LFE
Sampling rate                            : 48.0 KHz
Compression mode                         : Lossless
Title                                    : Insurgent.2015.1080p.3D.BluRay.Half-OU.x264.TrueHD.7.1.Atmos-RARBG
Language                                 : English
Default                                  : Yes
Forced                                   : No

Audio #2
ID                                       : 3
Format                                   : AC-3
Format/Info                              : Audio Coding 3
Mode extension                           : CM (complete main)
Format settings, Endianness              : Big
Codec ID                                 : A_AC3
Duration                                 : 1h 58mn
Bit rate mode                            : Constant
Bit rate                                 : 640 Kbps
Channel(s)                               : 6 channels
Channel positions                        : Front: L C R, Side: L R, LFE
Sampling rate                            : 48.0 KHz
Compression mode                         : Lossy
Stream size                              : 545 MiB (3%)
Title                                    : Insurgent.2015.1080p.3D.BluRay.Half-OU.x264.TrueHD.7.1.Atmos-RARBG
Language                                 : English
Default                                  : No
Forced                                   : No

Audio #3
ID                                       : 4
Format                                   : AC-3
Format/Info                              : Audio Coding 3
Format profile                           : Dolby Digital
Mode extension                           : CM (complete main)
Format settings, Endianness              : Big
Codec ID                                 : A_AC3
Duration                                 : 1h 58mn
Bit rate mode                            : Constant
Bit rate                                 : 224 Kbps
Channel(s)                               : 2 channels
Channel positions                        : Front: L R
Sampling rate                            : 48.0 KHz
Compression mode                         : Lossy
Stream size                              : 191 MiB (1%)
Title                                    : Insurgent.2015.1080p.3D.BluRay.Half-OU.x264.TrueHD.7.1.Atmos-RARBG
Language                                 : English
Default                                  : No
Forced                                   : No

Audio #4
ID                                       : 5
Format                                   : AC-3
Format/Info                              : Audio Coding 3
Format profile                           : Dolby Digital
Mode extension                           : CM (complete main)
Format settings, Endianness              : Big
Codec ID                                 : A_AC3
Duration                                 : 1h 58mn
Bit rate mode                            : Constant
Bit rate                                 : 224 Kbps
Channel(s)                               : 2 channels
Channel positions                        : Front: L R
Sampling rate                            : 48.0 KHz
Compression mode                         : Lossy
Stream size                              : 191 MiB (1%)
Title                                    : Insurgent.2015.1080p.3D.BluRay.Half-OU.x264.TrueHD.7.1.Atmos-RARBG
Language                                 : English
Default                                  : No
Forced                                   : No

Audio #5
ID                                       : 6
Format                                   : AC-3
Format/Info                              : Audio Coding 3
Mode extension                           : CM (complete main)
Format settings, Endianness              : Big
Codec ID                                 : A_AC3
Duration                                 : 1h 58mn
Bit rate mode                            : Constant
Bit rate                                 : 640 Kbps
Channel(s)                               : 6 channels
Channel positions                        : Front: L C R, Side: L R, LFE
Sampling rate                            : 48.0 KHz
Compression mode                         : Lossy
Stream size                              : 545 MiB (3%)
Title                                    : Insurgent.2015.1080p.3D.BluRay.Half-OU.x264.TrueHD.7.1.Atmos-RARBG
Language                                 : Spanish
Default                                  : No
Forced                                   : No

Text #1
ID                                       : 7
Format                                   : PGS
Muxing mode                              : zlib
Codec ID                                 : S_HDMV/PGS
Codec ID/Info                            : Picture based subtitle format used on BDs/HD-DVDs
Language                                 : English
Default                                  : No
Forced                                   : No

Text #2
ID                                       : 8
Format                                   : PGS
Muxing mode                              : zlib
Codec ID                                 : S_HDMV/PGS
Codec ID/Info                            : Picture based subtitle format used on BDs/HD-DVDs
Language                                 : English
Default                                  : No
Forced                                   : No

磁力链接:
游客,如果您要查看本帖隐藏内容请回复

点评

很给力!: 5.0
很给力!: 5
  发表于 2015-7-27 10:17

评分

参与人数 1体力 +1 收起 理由
moranl + 1

查看全部评分

wo_weihao 发表于 2015-7-27 00:35:12 | 显示全部楼层
阿桑福德sad范德萨发送到

点评

各类少女视频 少女套图 查看网址: m5pa.com   发表于 2018-11-9 00:39
各类少女视频 少女套图 查看网址: m5pa.com   发表于 2018-11-8 00:25
立体中国终于更新了  详情 回复 发表于 2015-8-26 09:26
回复 支持 188 反对 31

使用道具 举报

、3冇ベ靑哖づ  楼主| 发表于 2015-7-27 00:28:00 | 显示全部楼层
longworen 发表于 2015-7-27 00:20
美国大片吗?有几天没看过美国片子了,不错,我就收下了,谢谢。

绝对是大片
回复 支持 48 反对 8

使用道具 举报

longworen 发表于 2015-7-27 00:20:18 | 显示全部楼层
美国大片吗?有几天没看过美国片子了,不错,我就收下了,谢谢。

点评

终于又有大片了···感谢楼主!  详情 回复 发表于 2015-8-24 11:18
回复 支持 9 反对 6

使用道具 举报

pengshu123 发表于 2015-7-27 07:47:17 | 显示全部楼层
终于又有大片了···感谢楼主!
回复 支持 8 反对 5

使用道具 举报

197025 发表于 2015-7-27 07:31:58 | 显示全部楼层
真心不错,第一部挺好看的。
回复 支持 10 反对 3

使用道具 举报

fengzhong-xing 发表于 2015-7-27 08:05:43 | 显示全部楼层
多谢楼主的分享!
回复 支持 9 反对 3

使用道具 举报

fast1010 发表于 2015-7-27 07:58:23 | 显示全部楼层
好东东,我喜欢。
回复 支持 10 反对 2

使用道具 举报

万里寻乐 发表于 2015-7-30 00:46:49 | 显示全部楼层
感谢楼主分享!
回复 支持 3 反对 4

使用道具 举报

玉财神 发表于 2015-7-30 00:34:17 | 显示全部楼层
好大的啊,支持 了
回复 支持 1 反对 6

使用道具 举报

lqsong 发表于 2015-7-30 00:27:28 | 显示全部楼层
好大的啊,支持 了
回复 支持 3 反对 4

使用道具 举报

jackylitiao 发表于 2015-7-27 00:48:08 | 显示全部楼层
太好了又有新片了
回复 支持 4 反对 1

使用道具 举报

游弋边缘 发表于 2015-7-27 00:59:56 | 显示全部楼层
休息在家看电影 谢谢楼主的奉献精神
回复 支持 3 反对 3

使用道具 举报

fatmonkey 发表于 2015-7-27 01:09:40 | 显示全部楼层
真心不错,第一部挺好看的。
回复 支持 1 反对 3

使用道具 举报

cjxwwss 发表于 2015-7-27 01:32:42 | 显示全部楼层
好东西是用来支持的!!!
回复 支持 1 反对 3

使用道具 举报

欠揍的傻蛋 发表于 2015-7-27 01:37:54 | 显示全部楼层
健健康康看
回复 支持 2 反对 3

使用道具 举报

欠揍的傻蛋 发表于 2015-7-27 01:38:36 | 显示全部楼层
快快快急急急
回复 支持 2 反对 2

使用道具 举报

alf1969 发表于 2015-7-27 01:56:09 | 显示全部楼层

感谢楼主分享
回复 支持 1 反对 4

使用道具 举报

fjznga 发表于 2015-7-27 01:56:52 | 显示全部楼层
看广告挺吸引人的。
回复 支持 3 反对 2

使用道具 举报

戴鲲 发表于 2015-7-27 05:18:10 | 显示全部楼层
谢谢提供好电影,终于出来了。
回复 支持 3 反对 2

使用道具 举报

sxdt6513 发表于 2015-7-27 06:21:44 | 显示全部楼层
太给力了,力挺你
回复 支持 1 反对 3

使用道具 举报

YuriLowell 发表于 2015-7-27 06:36:50 | 显示全部楼层
好大的啊,支持 了      
回复 支持 2 反对 3

使用道具 举报

您需要登录后才可以回帖 登录 | 立即注册

本版积分规则

关闭

站长推荐上一条 /1 下一条