找回密码
 立即注册

QQ登录

只需一步,快速开始

查看: 523758|回复: 24440

【大闹天宫 3D The Monkey King 3D 3DTV HSBS 3DV】【左右半宽】【1080P】【国语发音】【迅雷快传】【6.83GB】

东么儿 发表于 2012-7-13 15:46:29 | 显示全部楼层 |阅读模式
本帖最后由 东么儿 于 2012-7-13 19:13 编辑

[cnliti]大闹天宫 The Monkey King  3DTV HSBS 1080P-3DV- mkv
建议使用3D影音播放本片以获得完美的3D效果!
3D影音下载地址:http://bo3d.net


游客,如果您要查看本帖隐藏内容请回复


迅雷快传下载完毕可以拿到pt下载赚取分享
游客,如果您要查看本帖隐藏内容请回复

游客,如果您要查看本帖隐藏内容请回复


游客,如果您要查看本帖隐藏内容请回复


00188593-1.jpg

◎片  名 The Monkey King 3D
◎年  代 2012
◎国  家 中国
◎类  别 动画/奇幻
◎语  言 国语
◎字  幕 无
◎片  长 01h:26min:11s
◎IMDB评分  N/A
◎IMDB链接  N/A
◎导  演 速  达   Su Da
                陈志宏   Zhi-hong Chen
◎主  演 李  扬   Yang Li ….孙悟空
      姚  晨   Chen Yao
      陈佩斯  Peisi Chen
      刘晓庆  Xiaoqing Liu
      陈凯歌  Kaige Chen
      冯小刚  Xiaogang Feng
      陈道明  Daoming Chen
      张国立  Guoli Zhang
      胡   歌  Ge Hu

◎简    介

  美丽的花果山有一位神通广大的美猴王,但苦于没有一件得心应手的兵器,一直无法施展自己的本领。为此,他来到东海龙宫觅宝。傲慢的龙王根本没把这个不起眼的小猴子放在眼里,同意无论什么兵器,只要他能拿得动,就可以借给他。不料,看似手无缚鸡之力的美猴王,居然将三万六千斤的定海神针——如意金箍棒玩于股掌之中。他在摆弄这根超级“神针”时还能轻巧地摆出各种“POSE”,气得龙王的胡须翘得半天高。

  气急败坏的龙王到天宫告状,诬告猴王抢走了定海神针。玉皇大帝在太白金星的计谋下,诱骗猴王上天,封为看管天马的“弼马温”,趁机将他软禁起来,由此息事宁人。毫无戒备的猴王悠哉悠哉地腾云驾雾上了天宫。生性无拘无束的猴王开始了他的捣乱行动,首先放开了天马,这下惹恼了御马监的主管马天君。马天君对猴王冷嘲热讽,肆意责骂,盛怒之下,他砸烂了御马监,一个筋斗翻回了花果山,竖起“齐天大圣”的旗帜,蔑视天宫,对抗天庭。

  玉帝大怒,命托塔李天王率天兵天将下来捉拿猴王,美猴王率训练有素的众猴奋力抵抗,花果山上“齐天大圣”显尽神威,天兵天将被打得落花流水,逃回了天宫。玉帝只能让太白金星施计企图再次诱骗猴王进宫,正式封其为“齐天大圣”,让他掌管蟠桃园好以此降服他。无所畏惧又充满自信的猴王再次以云彩为梯跃入天宫。采桃的仙女耻笑他这个“齐天大圣”根本就是一个毫不起眼的小角色,王母蟠桃宴上也没有他的一席之座。美猴王再次小宇宙爆发,抡着金箍棒把王母娘娘的蟠桃宴闹得天翻地覆,又一口气吃光了太上老君为玉帝炼制的九转金丹。玉帝忍无可忍,倾天宫之兵花了九牛二虎之力将猴王拿下,太上老君将其关进炼丹炉,熊熊烈火非但没有将他烧死,反而练就了猴王的神功。他挣脱了炼丹炉,一路厮杀,越战越勇,把天宫砸得稀巴烂,玉帝的凌霄宝殿也在他的神针下沦为废墟。
  1. Video
  2. ID                               : 1
  3. Format                           : AVC
  4. Format/Info                      : Advanced Video Codec
  5. Format profile                   : High@L4.1
  6. Format settings, CABAC           : Yes
  7. Format settings, ReFrames        : 4 frames
  8. Muxing mode                      : Header stripping
  9. Codec ID                         : V_MPEG4/ISO/AVC
  10. Duration                         : 1h 32mn
  11. Bit rate                         : 10 000 Kbps
  12. Width                            : 1 920 pixels
  13. Height                           : 1 080 pixels
  14. Display aspect ratio             : 16:9
  15. Frame rate                       : 23.976 fps
  16. Color space                      : YUV
  17. Chroma subsampling               : 4:2:0
  18. Bit depth                        : 8 bits
  19. Scan type                        : Progressive
  20. Bits/(Pixel*Frame)               : 0.201
  21. Stream size                      : 6.28 GiB (92%)
  22. Language                         : English

  23. Audio
  24. ID                               : 2
  25. Format                           : AC-3
  26. Format/Info                      : Audio Coding 3
  27. Mode extension                   : CM (complete main)
  28. Muxing mode                      : Header stripping
  29. Codec ID                         : A_AC3
  30. Duration                         : 1h 32mn
  31. Bit rate mode                    : Constant
  32. Bit rate                         : 640 Kbps
  33. Channel(s)                       : 6 channels
  34. Channel positions                : Front: L C R, Side: L R, LFE
  35. Sampling rate                    : 48.0 KHz
  36. Bit depth                        : 16 bits
  37. Compression mode                 : Lossy
  38. Stream size                      : 423 MiB (6%)
  39. Title                            : cnliti
  40. Language                         : Chinese
复制代码
[cnliti]大闹天宫 The Monkey King  3DTV HSBS 1080P-3DV- mkv.jpg

点评

很给力!: 4.2
很给力!: 0
  发表于 2012-10-18 07:57
已下载左右格式  发表于 2012-8-6 21:27
很给力!: 5
  发表于 2012-8-4 21:08
很给力!: 5
  发表于 2012-7-17 09:20
很给力!: 5
  发表于 2012-7-16 09:02

评分

参与人数 5体力 +17 魔力值 +6 +14 立体币 +14 收起 理由
小何夜雨 + 1 赞一个!
紅塵壹步終 + 1 赞一个!
aqjl + 1 K08RD为何放不了呢,不支持音频和视频解码
msxx2002 + 8 + 8 + 8 看截图是真立体,家中小孩正适用,感谢。
zs888 + 6 + 6 + 6 + 6 总算出来了

查看全部评分

周星猩 发表于 2012-7-13 15:53:56 | 显示全部楼层
片子很好,3D效果怎么样?

点评

超级棒,试一下就知道了  详情 回复 发表于 2012-7-16 18:21
回复 支持 116 反对 25

使用道具 举报

sddlc 发表于 2012-7-13 15:48:25 | 显示全部楼层
????????????????

点评

这电影不错,不知道有没有字幕  详情 回复 发表于 2013-11-1 16:55
制作一般,但是还是要鼓励的,国内3D太少了  发表于 2013-4-12 19:28
非常棒的影片,值的推荐。  发表于 2013-3-31 11:14
gygggggggggggggggggggggggggggggggggggggg  详情 回复 发表于 2012-11-11 18:49
好片子 就的下  发表于 2012-11-2 16:14
回复 支持 59 反对 5

使用道具 举报

andyli814 发表于 2012-7-13 15:57:05 | 显示全部楼层
终于有拉 看看经典的效果如何
回复 支持 1 反对 1

使用道具 举报

火线在行 发表于 2012-7-13 15:57:35 | 显示全部楼层
大闹天宫经典要看看
回复 支持 1 反对 0

使用道具 举报

ljww75 发表于 2012-7-13 15:56:48 | 显示全部楼层
哈哈,一直在找这片
回复 支持 0 反对 1

使用道具 举报

微笑de左左 发表于 2012-7-13 15:55:57 | 显示全部楼层
谢谢楼主无私奉献

点评

这个是非看不可的。  详情 回复 发表于 2013-9-28 17:58
电视不支持音视频格式,真无聊  详情 回复 发表于 2012-8-26 12:37
回复 支持 1 反对 0

使用道具 举报

411956256 发表于 2012-7-13 15:48:37 | 显示全部楼层
大闹天宫 3D The Monkey King 3D 3DTV HSBS 3DV

点评

1111111111111111111111111111111111  详情 回复 发表于 2012-12-12 21:32
给力  发表于 2012-9-12 13:55
回复 支持 反对

使用道具 举报

michaelyu 发表于 2012-7-13 15:49:32 | 显示全部楼层
上来支持

点评

中国经典神话支持呀  详情 回复 发表于 2012-7-15 18:49
回复 支持 反对

使用道具 举报

zxdn 发表于 2012-7-13 15:50:30 | 显示全部楼层
中国经典神话支持呀,3d的等待太久了

点评

东东辛苦了,又有好片看啦  详情 回复 发表于 2012-7-13 19:24
回复 支持 反对

使用道具 举报

ccm2368 发表于 2012-7-13 15:50:41 | 显示全部楼层
东东辛苦了,又有好片看啦。

点评

中国经典的神话之一,现在下载来给我家宝宝看!希望他也喜欢!  发表于 2014-2-8 20:45
是呀,中国的经典就这么多,什么时候能多出些经典呢?  发表于 2012-12-9 15:34
中国经典神话支持呀  详情 回复 发表于 2012-8-3 19:21
回复 支持 反对

使用道具 举报

野核桃 发表于 2012-7-13 15:51:13 | 显示全部楼层
看看怎么样!
回复 支持 反对

使用道具 举报

玛卡 发表于 2012-7-13 15:51:18 | 显示全部楼层
dfhyj tily i阬抬头看立体

点评

灌水了  发表于 2013-9-24 16:39
支持老大了~辛苦了~  详情 回复 发表于 2012-8-4 19:18
回复 支持 反对

使用道具 举报

33616813 发表于 2012-7-13 15:51:31 | 显示全部楼层
支持老大了~辛苦了~
回复 支持 反对

使用道具 举报

mdd1997 发表于 2012-7-13 15:51:32 | 显示全部楼层
这个是非看不可的。
回复 支持 反对

使用道具 举报

7206321 发表于 2012-7-13 15:51:52 | 显示全部楼层
这个好看吗???

点评

我看了的,不错.支持国产  详情 回复 发表于 2012-7-16 18:22
回复 支持 反对

使用道具 举报

kenwong_82 发表于 2012-7-13 15:51:59 | 显示全部楼层
下来给我女儿看看

点评

感觉不错,顶起  详情 回复 发表于 2013-1-1 21:20
回复 支持 反对

使用道具 举报

hyl1020 发表于 2012-7-13 15:52:46 | 显示全部楼层
这个是非看不可的。
回复 支持 反对

使用道具 举报

jindianjun 发表于 2012-7-13 15:53:17 | 显示全部楼层
谢谢分享,谢谢!

点评

不错谢谢支持一下  详情 回复 发表于 2012-8-3 19:30
回复 支持 反对

使用道具 举报

hujintao1234 发表于 2012-7-13 15:53:47 | 显示全部楼层
不错谢谢支持一下

点评

片子很好,3D效果怎么样  详情 回复 发表于 2012-8-3 19:27
回复 支持 反对

使用道具 举报

catherzgh 发表于 2012-7-13 15:54:41 | 显示全部楼层
xieixcxill;;;;kkjkkj

点评

小时候看过很感人 很激动 现在看起来依旧是那么好 赞一个  详情 回复 发表于 2014-3-27 06:23
真给力,动画出来了  详情 回复 发表于 2012-8-3 19:25
回复 支持 反对

使用道具 举报

3dhezi 发表于 2012-7-13 15:55:03 | 显示全部楼层
真给力,动画出来了

点评

好东西,谢谢分享  详情 回复 发表于 2012-8-3 19:24
回复 支持 反对

使用道具 举报

mqd0214 发表于 2012-7-13 15:55:39 | 显示全部楼层
好东西,谢谢分享

点评

快传也有啦,老大真速度  详情 回复 发表于 2012-8-3 19:23
回复 支持 反对

使用道具 举报

wwy760214 发表于 2012-7-13 15:55:55 | 显示全部楼层
快传也有啦,老大真速度!!

点评

看看看大闹天宫 3D The Monkey King 3D 3DTV HSBS 3DV  详情 回复 发表于 2014-1-5 14:59
2D转制的吧,不知3D效果如何,下来看看,谢谢楼主!  详情 回复 发表于 2012-7-27 09:43
支持支持 DDDDDDDDDDDDDD  详情 回复 发表于 2012-7-15 15:21
回复 支持 反对

使用道具 举报

您需要登录后才可以回帖 登录 | 立即注册

本版积分规则

关闭

站长推荐上一条 /1 下一条