找回密码
 立即注册

QQ登录

只需一步,快速开始

查看: 137518|回复: 4276

【松下3D试机片Vol.2版】【左右半宽】【1080P】【迅雷快传】【3.63G】

sheshejing 发表于 2012-6-26 18:16:02 | 显示全部楼层 |阅读模式
本帖最后由 sheshejing 于 2012-7-4 06:47 编辑

松下3D试机碟Demonstration.V1.2.3D蓝光原盘高画质压制,源生DTS5.1音轨。
该碟中所有试机片段已合并成一个MKV文件,方便收藏与观看。时长29分钟。

PBD.jpg PBD-1.png PBD-2.png PBD-3.png PBD-4.png PBD-5.png
Video #1
      ID : 1
      Format : AVC
      Format/Info : Advanced Video Codec
      Format profile : High@L5.1
      Format settings, CABAC : Yes
      Format settings, ReFrames : 2 frames
      Format settings, GOP : M=11, N=12
      Codec ID : V_MPEG4/ISO/AVC
      Duration : 29mn 8s
      Bit rate : 16.0 Mbps
      Width : 1 920 pixels
      Height : 1 080 pixels
      Display aspect ratio : 16:9
      Frame rate : 23.976 fps
      Color space : YUV
      Chroma subsampling : 4:2:0
      Bit depth : 8 bits
      Scan type : Progressive
      Bits/(Pixel*Frame) : 0.321
      Stream size : 3.25 GiB (90%)
      Writing library : x264 core
      Color primaries : BT.709-5, BT.1361, IEC 61966-2-4, SMPTE RP177
      Transfer characteristics : BT.709-5, BT.1361
      Matrix coefficients : BT.709-5, BT.1361, IEC 61966-2-4 709,SMPTE RP177
Audio #2
      ID : 2
      Format : DTS
      Format/Info : Digital Theater Systems
      Codec ID : A_DTS
      Duration : 29mn 8s
      Bit rate mode : Constant
      Bit rate : 1 510 Kbps
      Channel(s) : 6 channels
      Channel positions : Front: L C R, Side: L R, LFE
      Sampling rate : 48.0 KHz
      Bit depth : 16 bits
      Compression mode : Lossy
      Stream size : 315 MiB (8%)
      Language : English
游客,如果您要查看本帖隐藏内容请回复
txwh1035 发表于 2012-6-26 18:20:35 | 显示全部楼层
沙发!!感谢楼主
回复 支持 47 反对 9

使用道具 举报

171it 发表于 2012-6-26 18:22:51 | 显示全部楼层
多大呀我草
回复 支持 42 反对 12

使用道具 举报

耳出东方 发表于 2012-6-26 19:16:13 | 显示全部楼层
楼主啊,你辛苦了
回复 支持 18 反对 3

使用道具 举报

qizaghi 发表于 2012-6-26 19:09:09 | 显示全部楼层
dddddddddddddd
回复 支持 4 反对 0

使用道具 举报

gferte 发表于 2012-6-26 19:27:59 | 显示全部楼层
支持一下,混点积分。
回复 支持 3 反对 0

使用道具 举报

dengchaosh 发表于 2012-6-26 19:27:06 | 显示全部楼层
非常感谢楼主的分享
回复 支持 3 反对 0

使用道具 举报

18699218221 发表于 2016-1-19 12:21:02 | 显示全部楼层
dushaoyu 发表于 2012-6-26 18:35
111111111非常感谢分享

别上当   下不了
回复 支持 1 反对 1

使用道具 举报

ycxz0e 发表于 2015-11-12 00:51:18 | 显示全部楼层
喜欢这些短小的好片
回复 支持 1 反对 1

使用道具 举报

ycxz0e 发表于 2015-11-12 00:49:06 | 显示全部楼层
沙发支持一下,混点积分。
回复 支持 1 反对 1

使用道具 举报

veryhappy123 发表于 2015-11-15 18:35:04 | 显示全部楼层
刚买了3D眼镜儿,没资源看呢。
回复 支持 1 反对 1

使用道具 举报

剑啸龙翔 发表于 2012-6-26 18:27:31 | 显示全部楼层
非常感谢分享
回复 支持 反对

使用道具 举报

dushaoyu 发表于 2012-6-26 18:35:33 | 显示全部楼层
111111111非常感谢分享
回复 支持 反对

使用道具 举报

liuyubin 发表于 2012-6-26 18:38:57 | 显示全部楼层
喜欢这些短小的好片
回复 支持 反对

使用道具 举报

yaoliu68 发表于 2012-6-26 18:41:28 | 显示全部楼层
ssssssssssssssssssssssssssssssssssssssssssssssssssssssssssss
回复 支持 反对

使用道具 举报

豌豆米米 发表于 2012-6-26 18:42:19 | 显示全部楼层
试机的好东西啊!
回复 支持 反对

使用道具 举报

alucardmiao 发表于 2012-6-26 18:43:58 | 显示全部楼层
以前在商场里看过,终于等到了!!!!
回复 支持 反对

使用道具 举报

cmyyjc 发表于 2012-6-26 18:46:19 | 显示全部楼层
````````````````````````
回复 支持 反对

使用道具 举报

ThreeDS 发表于 2012-6-26 18:49:19 | 显示全部楼层
我要下载啊 。啊  
回复 支持 反对

使用道具 举报

tudun 发表于 2012-6-26 18:55:02 | 显示全部楼层
正需要这个,谢谢楼主的分享!
回复 支持 反对

使用道具 举报

mm_msn 发表于 2012-6-26 18:58:21 | 显示全部楼层
感谢提供分享
回复 支持 反对

使用道具 举报

13137508265 发表于 2012-6-26 18:59:22 | 显示全部楼层
你说的尽快发挥喀什的积分哈sdk积分哈sdk积分
回复 支持 反对

使用道具 举报

mfchlpy 发表于 2012-6-26 18:59:44 | 显示全部楼层
非常感谢分享
回复 支持 反对

使用道具 举报

东土人 发表于 2012-6-26 19:03:59 | 显示全部楼层
看图片效果不错。感谢分享
回复 支持 反对

使用道具 举报

fungdo 发表于 2012-6-26 19:05:54 | 显示全部楼层
感谢分享,不错的片子
回复 支持 反对

使用道具 举报

Q海拔鼠Q 发表于 2012-6-26 19:05:55 | 显示全部楼层
试机碟是好东西
回复 支持 反对

使用道具 举报

geg6816 发表于 2012-6-26 19:06:04 | 显示全部楼层
试机的东东也看下。
回复 支持 反对

使用道具 举报

hbwxw 发表于 2012-6-26 19:06:24 | 显示全部楼层
松下3D试机片V1.2版
回复 支持 反对

使用道具 举报

您需要登录后才可以回帖 登录 | 立即注册

本版积分规则

关闭

站长推荐上一条 /1 下一条